Young Sheldon S02E12 A Tummy Ache and a Whale of a Metaphor 1080p 5 1 2 0 x264 Phun Psyz torrent download

seeders: 176
leechers: 314
updated:
Added ago by PhunPsyz ***** in TV
Torrent Downloaded 10 times.
Info Hash: 7E18AE51EA2D44A7EA4503AACC173BEE3BD5FC48


Torrent Files

Young Sheldon S02E12 A Tummy Ache and a Whale of a Metaphor 1080p 5 1 - 2 0 x264 Phun Psyz (Size: 337.7 MB)
  Young Sheldon S02E12 A Tummy Ache and a Whale of a Metaphor 1080p 5 1 - 2 0 x264 Phun Psyz 337.7 MB

Torrent Description



www.imdb.com/title/tt9248530/?ref_=ttep_ep12

When Sheldon spends a few days at the hospital, he turns out to be the worlds worst paitient. Missy gets a taste of what it would be life like if she didn't have a twin

Source: AMCON (Webrip)







Format : MPEG-4
Format profile : Base Media / Version 2
Codec ID : mp42 (isom/iso2/avc1/mp41)
File size : 338 MiB
Duration : 18 min 33 s
Overall bit rate mode : Variable
Overall bit rate : 2 544 kb/s

Video
ID : 1
Format : AVC
Format/Info : Advanced Video Codec
Format profile : [email protected]
Format settings : CABAC / 1 Ref Frames
Format settings, CABAC : Yes
Format settings, ReFrames : 1 frame
Codec ID : avc1
Codec ID/Info : Advanced Video Coding
Duration : 18 min 33 s
Bit rate : 2 059 kb/s
Width : 1 920 pixels
Height : 1 080 pixels
Display aspect ratio : 16:9
Frame rate mode : Constant
Frame rate : 24.000 FPS
Color space : YUV
Chroma subsampling : 4:2:0
Bit depth : 8 bits
Scan type : Progressive
Bits/(Pixel*Frame) : 0.041
Stream size : 273 MiB (81%)
Writing library : x264 core 155 r2901 7d0ff22

Audio #1
ID : 2
Format : AC-3
Format/Info : Audio Coding 3
Commercial name : Dolby Digital
Codec ID : ac-3
Duration : 18 min 33 s
Bit rate mode : Constant
Bit rate : 320 kb/s
Channel(s) : 6 channels
Channel layout : L R C LFE Ls Rs
Sampling rate : 48.0 kHz
Frame rate : 31.250 FPS (1536 SPF)
Bit depth : 16 bits
Compression mode : Lossy
Stream size : 42.5 MiB (13%)
Title : Surround / Surround
Language : English

Audio #2
ID : 3
Format : AAC LC
Format/Info : Advanced Audio Codec Low Complexity
Codec ID : mp4a-40-2
Duration : 18 min 33 s
Bit rate mode : Variable
Bit rate : 159 kb/s
Channel(s) : 2 channels
Channel layout : L R
Sampling rate : 48.0 kHz
Frame rate : 46.875 FPS (1024 SPF)
Compression mode : Lossy
Stream size : 21.2 MiB (6%)
Title : Stereo / Stereo
Language : English

Text
Language : English
Default : Yes
Forced : No



Related Torrents

torrent name size age seed leech
1.5 GB 5 minutes 564 344
614.3 MB 5 minutes 224 272
244.3 MB 5 minutes 748 453
106.2 MB 5 minutes 122 363
261.7 MB 5 minutes 601 435

Sharing Widget


Download torrent
337.7 MB
seeders:1214
leechers:386
Young Sheldon S02E12 A Tummy Ache and a Whale of a Metaphor 1080p 5 1 - 2 0 x264 Phun Psyz



To share this torrent use the code below and insert it into comments, status messages, forum posts or your signature.

Torrent: Young Sheldon S02E12 A Tummy Ache and a Whale of a Metaphor 1080p 5 1 - 2 0 x264 Phun Psyz

Comments

Latest Searches

War Movies | épisode 17 streaming | Castlevania 2ª Temporada (2018) – Torrent WEB-DL 1080p/720p Dublado | Download Dual Áudio Completa War Movies | épisode 17 streaming | Castlevania 2ª Temporada (2018) – Torrent WEB-DL 1080p/720p Dublado | Download Dual Áudio Completa