Its Always Sunny in Philadelphia S01 S04 torrent download

seeders: 556
leechers: 44
updated:
Added ago by Chios ***** in TV
Torrent Downloaded 10 times.
Info Hash: 14E5FC0EB1BD52DAA02B559F4DB7D095593369A7


Torrent Files

Its Always Sunny in Philadelphia S01-S04 (Size: 12.0 GB)
  Its Always Sunny in Philadelphia S01-S04 12.0 GB

Torrent Description







General
Unique ID : 118724122901069391780286910066466554190 (0x59516F31034F854526AB217BEA49014E)
Complete name : /Users/Desktop/Its Always Sunny in Philadelphia/S01/S01E01 The Gang Gets Racist.mkv
Format : Matroska
Format version : Version 4
File size : 277 MiB
Duration : 22mn 24s
Overall bit rate : 1 730 Kbps
Encoded date : UTC 2019-01-09 18:26:10
Writing application : mkvmerge v30.1.0 ('Forever And More') 64-bit
Writing library : libebml v1.3.6 + libmatroska v1.4.9 / Lavf58.20.100

Video
ID : 1
Format : AVC
Format/Info : Advanced Video Codec
Format profile : [email protected]
Format settings : CABAC / 4 Ref Frames
Format settings, CABAC : Yes
Format settings, ReFrames : 4 frames
Codec ID : V_MPEG4/ISO/AVC
Duration : 22mn 24s
Bit rate : 1 600 Kbps
Width : 640 pixels
Height : 480 pixels
Display aspect ratio : 4:3
Frame rate mode : Constant
Frame rate : 23.976 (24000/1001) fps
Color space : YUV
Chroma subsampling : 4:2:0
Bit depth : 8 bits
Scan type : Progressive
Bits/(Pixel*Frame) : 0.217
Stream size : 256 MiB (92%)
Writing library : x264 core 157 r2935 545de2f
Encoding settings : cabac=1 / ref=3 / deblock=1:0:0 / analyse=0x3:0x113 / me=hex / subme=7 / psy=1 / psy_rd=1.00:0.00 / mixed_ref=1 / me_range=16 / chroma_me=1 / trellis=1 / 8x8dct=1 / cqm=0 / deadzone=21,11 / fast_pskip=1 / chroma_qp_offset=-2 / threads=12 / lookahead_threads=2 / sliced_threads=0 / nr=0 / decimate=1 / interlaced=0 / bluray_compat=0 / constrained_intra=0 / bframes=3 / b_pyramid=2 / b_adapt=1 / b_bias=0 / direct=1 / weightb=1 / open_gop=0 / weightp=2 / keyint=240 / keyint_min=24 / scenecut=40 / intra_refresh=0 / rc_lookahead=40 / rc=2pass / mbtree=1 / bitrate=1600 / ratetol=1.0 / qcomp=0.60 / qpmin=0 / qpmax=69 / qpstep=4 / cplxblur=20.0 / qblur=0.5 / vbv_maxrate=62500 / vbv_bufsize=78125 / nal_hrd=none / filler=0 / ip_ratio=1.40 / aq=1:1.00
Language : English
Default : Yes
Forced : No
Color range : Limited
Color primaries : BT.601 NTSC
Transfer characteristics : BT.709
Matrix coefficients : BT.601

Audio
ID : 2
Format : E-AC-3
Format/Info : Enhanced AC-3
Commercial name : Dolby Digital Plus
Codec ID : A_EAC3
Duration : 22mn 24s
Bit rate mode : Constant
Bit rate : 128 Kbps
Channel(s) : 2 channels
Channel layout : L R
Sampling rate : 48.0 KHz
Frame rate : 31.250 fps (1536 SPF)
Compression mode : Lossy
Delay relative to video : -5ms
Stream size : 20.5 MiB (7%)
Title : E-AC-3 2.0
Language : English
Service kind : Complete Main
Default : Yes
Forced : No

Text
ID : 3
Format : UTF-8
Codec ID : S_TEXT/UTF8
Codec ID/Info : UTF-8 Plain Text
Duration : 22mn 14s
Bit rate : 105 bps
Count of elements : 403
Stream size : 17.2 KiB (0%)
Language : English
Default : No
Forced : No



Related Torrents

torrent name size age seed leech
1.2 GB 36 seconds 772 31
122.0 MB 36 seconds 416 470
165.3 MB 36 seconds 50 305
73.4 MB 36 seconds 36 291
614.3 MB 36 seconds 350 36

Sharing Widget


Download torrent
12.0 GB
seeders:1214
leechers:386
Its Always Sunny in Philadelphia S01-S04



To share this torrent use the code below and insert it into comments, status messages, forum posts or your signature.

Torrent: Its Always Sunny in Philadelphia S01-S04

Comments

Latest Searches

More Details | Lingerie Nightwear Women Open Crotch Fishnet Body Stocking Bodysuit Black Sexy | Magazines More Details | Lingerie Nightwear Women Open Crotch Fishnet Body Stocking Bodysuit Black Sexy | Magazines